#TITLE:Scars of Yesterday;
#SUBTITLE:;
#ARTIST:DragonForce;
#TITLETRANSLIT:;
#SUBTITLETRANSLIT:;
#ARTISTTRANSLIT:;
#CREDIT:;
#BANNER:banner.png;
#BACKGROUND:bg.jpg;
#LYRICSPATH:;
#CDTITLE:cd.png;
#MUSIC:DragonForce - Scars of Yesterday.mp3;
#OFFSET:-0.668;
#SAMPLESTART:129.399;
#SAMPLELENGTH:21.620;
#SELECTABLE:YES;
#BPMS:0.000=130.000,104.000=200.000;
#STOPS:;
#BGCHANGES:;
// cache tags:
#FIRSTBEAT:12.000;
#LASTBEAT:1496.000;
#SONGFILENAME:Songs/Music V.I.P ^_^/Scars of Yesterday/Scars of Yesterday.sm;
#HASMUSIC:1;
#HASBANNER:1;
#MUSICLENGTH:469.415;
// end cache tags

//---------------dance-single - ----------------
#NOTES:
     dance-single:
     :
     Challenge:
     14:
     1.000,1.000,1.000,0.803,1.000,3401.000,486.000,377.000,0.000,45.000:
0000
0000
0000
0000
,
0000
0000
0000
0000
,
0000
0000
0000
0000
,
1000
0100
0010
0001
0010
0001
1000
0100
0010
0100
0010
0001
0010
0100
1000
0100
0010
0001
0010
0001
0010
0100
1000
0100
1000
0001
0010
0100
0010
0100
0010
0100
,
2000
0000
0000
0200
0000
0000
0000
0000
,
0000
0000
0000
0000
,
3020
0000
0000
2300
0000
0000
0000
3030
,
1000
0100
0010
0001
0010
0001
0010
0100
1000
0100
0010
0001
0010
0100
1000
0100
0010
0001
0010
0001
0010
0100
1000
0100
1000
0001
0010
0100
0010
0001
0010
0100
,
1000
0001
1000
0010
1000
0001
0100
0001
1000
0010
0100
0001
1000
0001
1000
0010
,
1000
0001
0100
0010
1000
0010
1000
0001
0100
0001
1000
0010
0100
0001
0100
0010
,
1000
0010
0100
0001
0100
0001
1000
0010
1000
0001
0100
0001
1000
0010
0100
0001
,
1000
0000
0100
0000
0000
0000
0001
0000
0010
0000
0000
0000
0000
0000
0001
0000
0000
0000
0010
0000
0000
0000
0000
0000
1000
0100
0010
0100
0010
0001
0010
0001
,
0100
0001
0100
0010
1000
0010
0100
0001
1000
0010
0100
0001
1000
0001
1000
0001
,
1000
0001
0100
0010
0100
0001
1000
0001
0100
0010
1000
0001
0100
0001
1000
0010
,
1000
0001
0100
0010
1000
0010
1000
0001
0100
0010
1000
0001
0100
0010
0100
0001
,
0100
0100
0000
1000
1000
0000
0000
0001
0000
0010
0000
0000
0100
0000
0010
0100
,
0001
0010
0200
0000
0000
0300
2000
0000
0000
0000
0000
0000
0000
0000
3100
1000
,
0200
0000
0000
0320
0000
0030
0020
0000
0000
0000
0000
0000
0000
0000
0000
0030
,
0002
0000
0003
0020
0000
0030
0200
0000
0000
1300
0100
0010
0001
0010
0100
1000
,
0001
0000
0010
0000
0010
0000
0010
0000
0100
0000
1000
0000
1000
0000
0100
0000
1000
0100
0010
0001
0010
0001
0010
0100
1000
0100
1000
0100
0010
0100
0010
0100
,
1000
0100
0020
0000
0000
0000
0000
0000
0000
0000
0000
0000
0000
0000
0000
0000
0130
0000
0000
0000
0000
0000
0000
0000
1000
0000
0000
0000
0000
0000
0000
0000
0100
0000
0000
0000
0000
0000
0000
0000
0000
0000
0000
0000
0200
0000
0000
0000
0000
0000
0000
0000
0000
0000
0000
0000
0310
0000
0000
0000
0000
0000
0000
0000
,
0020
0000
0000
0031
0000
0000
0002
0000
0000
0000
0000
0000
0000
0000
0000
0000
,
0023
0000
0000
0130
0000
0000
2000
0000
0000
3100
1000
0100
0010
0001
0010
0100
,
2000
0000
0000
3100
0000
0000
0020
0000
0032
0000
0000
0203
0000
0000
2300
0000
,
3200
0000
0000
0000
0000
0000
0320
0032
,
1003
0100
0010
0100
0010
0001
0010
0001
1000
0100
0010
0100
1000
0001
0010
0100
1000
0100
1000
0100
0010
0001
0010
0001
1000
0100
0010
0100
0010
0100
1000
0100
,
0011
0000
0000
0000
,
2200
0000
0000
0000
0000
0000
0000
3300
0220
0000
0000
0000
0000
0000
0000
0330
,
0011
0000
0000
0000
,
2200
0000
0000
0000
0000
0000
0000
3300
0221
0000
0001
0000
0001
0000
0000
0330
,
0101
1000
0001
0100
0010
1000
0001
1000
,
0010
0100
0001
0100
0010
1000
0100
0010
,
0001
0010
1000
0010
0001
0100
1000
0010
,
0100
0010
0100
0010
0100
0010
0100
0010
0100
0010
0100
0010
0100
0010
0100
0010
,
0100
0001
1000
0001
0100
0010
1000
0001
0100
0010
0100
0010
1000
0001
1000
0010
,
0100
0001
0100
0001
0100
0010
1000
0001
1000
0010
0100
0001
0100
0010
1000
0010
,
1000
0001
0100
0001
1000
0010
1000
0001
0100
0001
1000
0010
0100
0010
1000
0001
,
0100
0010
0100
0010
0100
0010
0100
0010
0100
0010
0100
0010
0100
0010
0100
0010
,
0100
0001
1000
0100
,
0100
0001
1000
0010
0100
0001
1000
0010
1000
0001
0100
0001
0100
0010
1000
0001
,
0100
1000
0010
0100
0001
1000
0010
0100
,
0001
0010
0001
0010
0001
0100
0001
0100
0010
0100
0010
0100
0010
1000
0010
1000
,
0110
0000
0110
0000
,
0011
0000
0000
0000
0100
1000
0100
1000
0100
1000
0100
1000
0100
0010
0100
0010
,
0101
0000
0101
0000
,
0110
0110
0000
0110
0110
0110
0110
0000
,
1000
0001
0100
0001
1000
0010
1000
0001
1000
0010
0100
0010
1000
0001
1000
0001
,
0100
0010
0100
0010
1000
0010
0100
0001
0100
0010
0100
0001
1000
0001
0100
0001
,
1000
0001
0100
0010
0100
0010
1000
0001
1000
0001
0100
0010
1000
0010
0100
0001
,
1000
0001
0100
0010
0100
0001
0100
0010
1000
0001
1000
0010
1000
0001
0100
0010
,
1000
0000
1000
0000
0010
0100
0010
0000
0001
0000
0001
0000
0010
0100
0010
0000
,
0001
0010
0001
0010
0001
0100
0001
0100
0010
0100
0010
0100
0010
1000
0010
1000
,
0002
0000
0013
1000
0001
1000
0010
1000
0001
0010
0100
1000
0010
0100
0001
1000
,
0020
0000
0031
1000
0010
0100
0020
0000
0031
1000
0001
1000
0200
0000
0300
0000
,
0110
0000
0110
0000
0110
0000
0000
0011
,
0000
0011
0000
0011
1000
0001
0100
0001
,
0100
0001
1000
0010
0100
0001
1000
0010
0100
0001
1000
0010
0100
0001
1000
0010
,
0100
0010
1000
0001
0100
0010
1000
0001
0100
0001
1000
0010
0100
0001
1000
0010
,
0200
0300
0020
0030
0002
0003
0000
0000
2000
3000
0200
0300
0000
0000
0002
0003
,
0100
0010
0100
0010
0100
0010
0100
0010
0100
1000
0100
1000
0100
1000
0100
1000
,
0200
0000
1300
0001
1000
0001
0100
0010
1000
0010
0100
0001
1000
0100
0010
0001
,
2000
0000
3100
0001
1000
0010
0200
0000
1300
0001
0100
0001
2000
0000
3000
0000
,
0110
0000
0110
0000
0110
0000
0000
0110
,
0000
0000
0100
0010
0100
0010
0100
0010
0100
1000
0100
1000
0100
1000
0100
1000
,
0100
0001
1000
0010
0100
0001
1000
0001
0100
0010
0100
0001
0100
0010
1000
0010
,
1000
0001
1000
0010
0100
0001
0100
0010
0100
0001
1000
0010
0100
0001
1000
0010
,
0200
2300
3200
0300
0020
0000
0030
0000
0002
0023
0032
0003
0200
0000
0300
0000
,
2000
3200
0320
0030
0002
0003
0200
0300
2000
3000
0200
0300
0020
0030
0002
0003
,
0110
0000
0110
0000
0000
0000
0000
0110
,
0000
0110
0000
0000
0000
0000
0000
0000
,
2000
0000
0001
0010
0001
0010
0001
0100
0001
0100
0001
0100
3011
0100
0012
0000
,
0000
0000
0100
0010
0100
0010
0100
0010
1000
0010
0100
0010
1000
0010
0100
0010
,
1103
0000
1100
0000
0000
0000
0000
1100
,
0000
1100
0000
0000
0000
0000
0000
0000
,
0201
1000
0010
1000
0001
1000
0010
1000
0001
1000
0010
1000
0311
0000
0012
0000
,
0000
0000
0010
1000
0010
1000
0010
1000
0100
1000
0100
1000
0100
1000
0100
1000
,
0103
0000
0100
0000
0010
0001
0010
0000
0001
0000
0001
0000
0100
1000
0100
0000
,
0010
0000
0010
0000
1000
0001
1000
0000
0001
0000
0001
0000
0010
0100
0010
0000
,
0100
1000
0100
1000
0100
1000
0100
1000
0100
1000
0100
1000
0100
1000
0100
1000
,
0100
0000
0100
0000
1000
0001
1000
0000
0001
0000
0001
0000
0010
1000
0010
0000
,
0001
0000
0001
0000
0100
0001
0100
0000
1000
0000
1000
0000
0001
0100
0001
0000
,
0010
0000
0010
0000
0001
1000
0001
0000
0100
0000
0100
0000
0001
0010
0001
0000
,
0100
1000
0100
1000
0100
1000
0100
1000
0100
1000
0100
1000
0100
1000
0100
1000
,
0110
0110
0000
0110
0110
0110
0110
0000
,
0110
0000
0000
0000
,
0120
1000
0001
0100
1000
0100
0001
0100
,
2031
0010
0001
0100
0010
0100
0001
0010
,
3210
0000
0010
0001
0010
0001
0010
0000
0010
0001
0010
0001
0010
0001
0010
0001
,
0320
0000
0031
1000
0001
0100
0010
1000
0001
0010
0100
1000
0010
0100
0001
1000
,
0020
0000
0031
1000
0010
0100
0002
0000
0013
1000
0100
0010
0001
1000
0010
1000
,
0002
0000
0013
0100
0001
1000
0010
1000
0001
0100
0010
1000
0010
0100
0001
1000
,
0010
0100
0010
0100
0010
0100
0010
0100
0010
0100
0010
0100
0010
0100
0010
0100
,
0010
0100
0010
0100
0010
0100
0010
0100
0010
1000
0010
1000
0010
1000
0010
1000
,
0010
0000
0000
0000
,
0210
0000
0000
0010
0011
0000
0001
0001
,
2300
0001
0001
0000
0110
0000
0100
0000
,
3021
0000
0000
0000
1100
0000
0100
0100
,
0130
0001
0100
0010
1000
0001
0100
0010
1000
0010
1000
0001
0100
0010
1000
0010
,
0201
0000
0000
0000
1001
0000
0010
0010
,
0000
0000
0010
0000
0010
0000
0000
0000
1000
0010
1000
0000
0010
0001
0010
0001
,
0320
0000
0000
0100
1100
0000
0001
0001
,
2031
0100
0010
0100
0001
0100
0010
0001
0010
0100
0001
0010
,
3200
0000
1300
0001
0100
0001
1000
0100
0010
0001
0100
0010
1000
0001
0100
0010
,
0200
0000
1300
0001
0100
0001
0010
0100
1000
0010
1000
0010
0100
0001
1000
0010
,
2000
0000
3100
0010
0100
0001
1000
0001
0010
0100
1000
0010
1000
0010
0100
0001
,
2100
0000
0100
0000
0010
0001
0010
0001
0010
0100
0010
0000
0010
0001
0010
0001
,
3110
0000
0011
0011
0000
0011
0000
0011
,
0000
0011
0000
0011
0011
0000
0011
0011
,
0011
0000
0000
0000
0000
0000
0100
1000
0100
1000
0000
0000
0000
0000
0000
0100
,
0010
0000
0000
0000
,
1000
0001
0100
0001
1000
0010
0100
0010
1000
0001
1000
0010
0100
0001
0100
0001
,
1000
0001
0100
0010
1000
0001
1000
0010
1000
0010
0100
0001
1000
0001
1000
0010
,
0100
0001
0100
0010
1000
0001
0100
0010
1000
0010
1000
0001
0100
0010
1000
0001
,
0100
0010
0100
0010
0100
0010
0100
0010
0100
0010
0100
0010
0100
0010
0100
0010
,
0100
0001
1000
0001
0100
0001
1000
0010
0100
0001
1000
0010
1000
0001
1000
0010
,
0100
0001
0100
0010
0100
0001
1000
0010
0100
0010
1000
0010
0100
0001
0100
0010
,
1000
0001
0100
0001
1000
0010
1000
0001
0100
0010
1000
0001
0100
0001
1000
0010
,
0200
2300
3200
0300
2000
3000
0000
0000
0002
0003
0020
0030
0002
0003
0020
0030
,
1000
0000
1000
0000
0100
0010
0100
0000
0001
0000
0001
0000
0010
1000
0010
0000
,
0100
0000
0100
0000
0001
0010
0001
0000
0010
0000
0010
0000
1000
0100
1000
0000
,
0010
0000
0010
0000
1000
0010
1000
0000
0100
0000
0100
0000
0010
0100
0010
0000
,
1000
0010
0100
0010
0100
0010
0100
0010
1000
0010
0100
0010
0100
0010
0100
0010
,
0100
0000
0100
0000
0001
0010
0001
0000
1000
0000
1000
0000
0100
0010
0100
0000
,
0010
0000
0010
0000
1000
0001
1000
0000
0100
0000
0100
0000
0001
0010
0001
0000
,
1000
0000
1000
0000
0100
0001
0100
0000
0001
0000
0001
0000
1000
0100
1000
0000
,
0100
0010
0100
0010
0100
0010
0100
0010
0100
0010
0100
0010
0100
0010
0100
0010
,
1100
1100
0000
1100
1100
0000
0000
0000
,
0200
0000
1300
0001
1000
0100
0010
0001
0100
0010
1000
0001
0100
0001
1000
0010
,
2000
0000
3001
0010
0100
1000
0200
0000
1300
0001
1000
0001
2000
0000
3000
0000
,
1100
0000
0110
0000
0011
0011
0000
0011
,
0000
0011
0000
0110
0110
1000
0001
0010
,
0100
0001
0100
0010
1000
0001
0100
0010
1000
0010
0100
0001
0100
0010
1000
0001
,
0100
0001
1000
0010
0100
0001
0100
0010
1000
0001
0100
0001
1000
0010
0100
0001
,
0200
0300
0020
0030
2000
3000
0000
0000
0002
0003
0020
0030
0000
0000
0002
0003
,
0100
0010
0100
0010
0100
0010
0100
0010
0200
0300
2000
3000
0002
0003
0020
0030
,
0200
0000
1300
0001
0010
0100
1000
0001
0100
0010
1000
0001
1000
0010
0100
0001
,
2000
0000
3100
0001
0100
0001
2000
0000
3100
0010
1000
0001
0200
0000
0300
0000
,
0110
0000
0110
0000
0110
0000
0000
0101
,
0000
0000
0100
0010
0100
0010
0100
0010
0100
0010
0100
0010
0100
0010
0100
0010
,
0200
0000
1300
0001
0100
0001
1000
0010
0100
0010
1000
0001
0100
0010
0100
0001
,
1000
0010
0100
0001
0100
0010
1000
0010
1000
0001
0100
0001
1000
0010
0100
0010
,
0002
0003
0020
0030
0200
0300
0000
0000
0020
0030
0200
0300
2000
3000
0000
0000
,
0002
0003
0020
0030
0000
0000
0002
0003
0020
0030
0000
0000
0200
0300
0002
0003
,
0110
0000
0110
0000
0000
0000
0000
0110
,
0000
0110
0000
0000
0000
0000
0000
0000
,
1020
0100
1000
0100
1000
0100
1000
0100
1000
0100
1000
0100
1032
0010
1203
0010
,
1000
0010
0001
0010
0001
0010
1000
0010
0001
0010
0001
0010
0001
0010
0001
0010
,
1301
0000
1001
0000
0000
0000
0000
0011
,
0000
0011
0000
0000
0000
0000
0000
0000
,
0210
0001
0010
0001
0010
0001
0010
0001
0010
0001
0010
0001
1320
0100
1032
0000
,
0000
0000
0010
0100
0010
0100
0010
0100
1000
0100
1000
0100
0010
0100
0010
0100
,
0013
0000
0010
0000
1000
0001
1000
0000
0010
0000
0010
0000
0100
1000
0100
0000
,
0001
0000
0001
0000
0010
0001
0010
0000
0100
0000
0100
0000
0010
0001
0010
0000
,
0100
1000
0100
1000
0100
1000
0100
1000
0100
1000
0100
1000
0100
1000
0100
1000
,
0100
0000
0100
0000
0010
1000
0010
0000
0001
0000
0001
0000
1000
0100
1000
0000
,
0010
0000
0010
0000
0100
1000
0100
0000
0001
0000
0001
0000
1000
0100
1000
0000
,
0010
0000
0010
0000
0100
0001
0100
0000
0010
0000
0010
0000
1000
0001
1000
0000
,
0100
0000
0100
0000
0001
0010
0001
0000
1000
0000
1000
0000
0100
0001
0100
0000
,
1100
1100
0000
1100
1100
1100
1100
0000
,
0110
0000
0000
0000
,
0012
1000
0010
0100
0010
1000
0100
0010
,
2103
0001
0010
0001
0100
0010
0100
0010
,
3021
0100
0001
0100
0001
0100
0001
0100
0001
0100
0001
0100
0001
0100
0001
0100
,
2031
0000
3100
0010
1000
0010
1000
0100
0010
0001
1000
0010
0100
0010
1000
0010
,
0200
0000
1300
0010
1000
0001
0200
0000
1300
0010
0100
0001
0010
0100
1000
0001
,
2000
0000
3100
0001
1000
0010
0100
0001
0010
0100
1000
0010
0100
0001
1000
0001
,
0100
0010
0100
0010
0100
0010
0100
0010
0100
0010
0100
0010
0100
0010
0100
0010
,
0001
0010
0001
0010
0100
0010
0100
0010
0001
0010
0001
0010
0100
0010
0100
0010
,
0200
0300
0200
0300
0200
0300
0200
0300
0200
0300
0200
0300
0200
0300
0200
0300
,
0201
0000
0000
1000
1010
0000
0001
0001
,
2300
0000
0001
0000
0001
0000
0000
0000
0100
0001
0100
0000
0010
0001
0010
0001
,
3120
0001
1100
0001
,
0130
0001
1000
0001
0100
0010
1000
0001
1000
0010
0100
0010
1000
0001
0100
0010
,
0201
0000
0000
0000
1001
0000
0001
0001
,
0000
0000
0010
0000
0010
0000
0000
0000
1000
0010
1000
0000
0010
0001
0010
0001
,
0320
0000
0000
0100
1100
0000
0001
0001
,
2031
0000
0000
0000
0100
0000
0000
0000
0100
0001
0100
0001
0100
0001
0100
0001
,
3200
0000
1300
0001
0100
0001
0100
0010
1000
0100
0010
0001
0100
0010
0100
0001
,
2000
0000
3100
0001
0100
0010
1000
0001
0100
0010
1000
0001
0010
0100
1000
0010
,
0200
0000
1300
0001
0100
0001
1000
0010
1000
0100
0010
0001
0100
0001
1000
0010
,
2100
0000
0100
0000
0010
0100
0010
0100
0010
0100
0010
0100
0010
0100
0010
0100
,
3011
0000
0011
0011
0000
0011
0000
0011
,
0000
0011
0000
0011
0011
0000
0011
0011
,
0011
0100
0010
0100
0010
0100
0010
0100
0010
0100
0010
0100
0010
0100
0010
0100
,
0010
0100
0010
0100
0010
1000
0010
0000
0100
1000
0100
1000
0100
1000
0100
1000
,
0100
0000
0100
0000
0010
1000
0010
0000
0001
0000
0001
0000
1000
0010
1000
0000
,
0001
0000
0001
0000
1000
0100
1000
0000
0001
0000
0001
0000
0100
0010
0100
0000
,
1000
0000
1000
0000
0001
0100
0001
0000
0010
0000
0010
0000
0100
1000
0100
0000
,
0001
0000
0001
0000
1000
0010
1000
0000
0100
0000
0100
0000
0010
0001
0010
0000
,
1000
0000
1000
0000
0001
0100
0001
0000
0010
0000
0010
0000
0100
0001
0100
0000
,
1000
0000
1000
0000
0010
0100
0010
0000
0001
0000
0001
0000
0100
0010
0100
0000
,
1000
0000
1000
0000
0100
0001
0100
0000
0010
0000
0010
0000
0001
1000
0001
0000
,
0010
0100
0010
0100
0010
0100
0010
0100
1000
0100
1000
0100
1000
0100
1000
0100
,
1000
0001
0100
0010
1000
0010
0100
0001
0100
0010
1000
0001
0100
0001
1000
0010
,
1000
0001
0100
0010
1000
0001
0100
0010
0100
0001
1000
0010
0100
0001
1000
0001
,
0100
0010
1000
0001
0100
0010
0100
0001
1000
0010
0100
0001
1000
0001
0100
0010
,
1000
0001
1000
0010
0100
0001
1000
0010
1000
0010
0100
0001
0100
0010
1000
0001
,
0100
0001
0100
0010
1000
0001
1000
0010
0100
0001
0100
0001
1000
0010
0100
0001
,
1000
0010
0100
0010
0100
0001
1000
0001
0100
0010
1000
0001
0100
0001
0100
0010
,
0001
0010
0001
0010
0001
0010
0001
0010
0100
1000
0100
1000
0100
1000
0100
1000
,
0100
0001
0010
0001
0100
0001
0010
0001
0100
0001
0010
0001
0100
0000
0000
0000
,
0110
0000
0000
0011
,
0000
1100
0000
0000
,
0110
0000
0000
0000
,
0000
0000
0000
0000
,
0020
0000
0000
0032
0000
0000
0203
0000
,
0000
0000
0000
0000
0000
0000
0000
0000
0000
0000
0000
0300
0200
0000
2300
0000
,
3200
0320
0230
0000
0000
0000
0000
0000
,
0000
0000
0000
0000
0000
0000
0000
0300
0200
0000
2300
0000
3200
0000
2300
0000
,
3020
0000
0000
0032
0000
0000
2003
0000
,
0000
3002
0000
0000
,
0000
0000
0000
0000
,
0000
0000
0000
0000
0000
0000
0023
0230
,
2300
0000
0000
3000
2000
0000
3200
0000
0320
0000
0000
0030
0020
0000
0230
0000
,
2300
0000
0000
0000
,
0000
0000
0000
0000
,
3002
0000
0000
0000
0000
0000
0023
0000
0000
0000
0000
0030
0020
0000
0230
0000
,
2300
0000
0000
0000
0000
3000
2000
0000
,
0000
0000
0000
0000
,
3200
0000
0000
0320
,
0000
0000
0032
0000
,
0203
0300
0000
0000
0000
0000
0000
0000
0020
0030
0000
0000
0000
0000
0000
0000
0200
0300
0000
0000
0000
0000
0000
0000
0002
0000
0000
0000
0000
0000
0000
0000
0000
0000
0000
0000
0000
0000
0000
0000
0203
0300
0000
0000
0000
0000
0000
0000
0020
0030
0000
0000
0000
0000
0000
0000
2000
0000
0000
0000
0000
0000
0000
0000
,
0000
0000
0000
0000
0000
0000
0000
0000
3002
0003
0000
0000
0000
0000
0000
0000
0020
0000
0000
0000
0000
0000
0000
0000
0000
0000
0000
0000
0000
0000
0000
0000
0230
0000
0000
0000
0000
0000
0000
0000
0000
0000
0000
0000
0000
0000
0000
0000
0000
0000
0000
0000
0000
0000
0000
0000
0000
0000
0000
0000
0300
0000
0000
0000
,
0200
0300
0000
0000
0000
0000
0000
0000
0020
0030
0000
0000
0000
0000
0000
0000
0200
0300
0000
0000
0000
0000
0000
0000
0002
0000
0000
0000
0000
0000
0000
0000
0000
0000
0000
0000
0000
0000
0000
0000
0203
0300
0000
0000
0000
0000
0000
0000
0020
0030
0000
0000
0000
0000
0000
0000
2000
0000
0000
0000
0000
0000
0000
0000
,
0000
0000
0000
0000
0000
0000
0000
0000
3002
0003
0000
0000
0000
0000
0000
0000
0020
0030
0000
0000
0000
0000
0000
0000
0200
0000
0000
0000
0000
0000
0000
0000
0000
0000
0000
0000
0000
0000
0000
0000
0000
0000
0000
0000
0000
0000
0000
0000
0000
0000
0000
0000
0000
0000
0000
0000
0000
0000
0000
0000
0000
0000
0000
0000
,
2300
3000
0000
0000
0000
0000
0000
0000
0200
0300
0000
0000
0000
0000
0000
0000
2000
3000
0000
0000
0000
0000
0000
0000
0020
0000
0000
0000
0000
0000
0000
0000
0000
0000
0000
0000
0000
0000
0000
0000
2030
3000
0000
0000
0000
0000
0000
0000
0200
0300
0000
0000
0000
0000
0000
0000
0020
0030
0000
0000
0000
0000
0000
0000
,
0200
0300
0000
0000
0000
0000
0000
0000
2000
3000
0000
0000
0000
0000
0000
0000
2000
0000
0000
0000
0000
0000
0000
0000
0000
0000
0000
0000
0000
0000
0000
0000
3200
0000
0000
0000
0000
0000
0000
0000
0000
0000
0000
0000
0000
0000
0000
0000
0320
0000
0000
0000
0000
0000
0000
0000
0000
0000
0000
0000
0000
0000
0000
0000
,
0230
0300
0000
0000
0000
0000
0000
0000
0020
0030
0000
0000
0000
0000
0000
0000
0200
0300
0000
0000
0000
0000
0000
0000
0002
0000
0000
0000
0000
0000
0000
0000
0000
0000
0000
0000
0000
0000
0000
0000
0203
0300
0000
0000
0000
0000
0000
0000
0020
0030
0000
0000
0000
0000
0000
0000
2000
0000
0000
0000
0000
0000
0000
0000
,
0000
0000
0000
0000
0000
0000
0000
0000
3002
0003
0000
0000
0000
0000
0000
0000
0020
0030
0000
0000
0000
0000
0000
0000
0200
0000
0000
0000
0000
0000
0000
0000
0000
0000
0000
0000
0000
0000
0000
0000
0000
0000
0000
0000
0000
0000
0000
0000
0000
0000
0000
0000
0000
0000
0000
0000
0000
0000
0000
0000
0000
0000
0000
0000
,
2300
0000
0000
3200
0000
0000
0320
0000
,
0032
0003
0000
0000
0000
0000
0000
0000
0020
0030
0000
0000
0000
0000
0000
0000
0200
0300
0000
0000
0000
0000
0000
0000
0020
0030
0000
0000
0000
0000
0000
0000
0002
0003
0000
0000
0000
0000
0000
0000
0020
0030
0000
0000
0000
0000
0000
0000
0200
0300
0000
0000
0000
0000
0000
0000
2000
3000
0000
0000
0000
0000
0000
0000
,
0200
0000
0000
0000
0000
0000
0000
0000
0000
0000
0000
0000
0000
0000
0000
0000
0000
0000
0000
0000
0000
0000
0000
0000
0302
0000
0000
0000
0000
0000
0000
0000
0000
0000
0000
0000
0000
0000
0000
0000
0203
0300
0000
0000
0000
0000
0000
0000
0020
0030
0000
0000
0000
0000
0000
0000
0002
0000
0000
0000
0000
0000
0000
0000
,
0000
0000
0000
0000
0003
0000
0000
0000
0002
0003
0000
0000
0000
0000
0000
0000
0020
0030
0000
0000
0000
0000
0000
0000
0200
0000
0000
0000
0000
0000
0000
0000
0000
0000
0000
0000
0000
0000
0000
0000
2300
3000
0000
0000
0000
0000
0000
0000
0200
0300
0000
0000
0000
0000
0000
0000
0020
0030
0000
0000
0000
0000
0000
0000
,
0002
0003
0000
0000
0000
0000
0000
0000
0020
0030
0000
0000
0000
0000
0000
0000
0200
0300
0000
0000
0000
0000
0000
0000
2000
0000
0000
0000
0000
0000
0000
0000
0000
0000
0000
0000
0000
0000
0000
0000
3002
0003
0000
0000
0000
0000
0000
0000
0020
0030
0000
0000
0000
0000
0000
0000
0200
0000
0000
0000
0000
0000
0000
0000
,
0000
0000
0000
0000
0000
0000
0000
0000
0302
0003
0000
0000
0000
0000
0000
0000
0020
0000
0000
0000
0000
0000
0000
0000
0000
0000
0000
0000
0000
0000
0000
0000
0230
0000
0000
0000
0000
0000
0000
0000
0000
0000
0000
0000
0000
0000
0000
0000
0320
0000
0000
0000
0000
0000
0000
0000
0000
0000
0000
0000
0000
0000
0000
0000
,
2030
3000
0000
0000
0000
0000
0000
0000
0200
0300
0000
0000
0000
0000
0000
0000
0020
0030
0000
0000
0000
0000
0000
0000
0002
0000
0000
0000
0000
0000
0000
0000
0000
0000
0000
0000
0000
0000
0000
0000
2003
3000
0000
0000
0000
0000
0000
0000
0200
0300
0000
0000
0000
0000
0000
0000
0020
0000
0000
0000
0000
0000
0000
0000
,
0000
0000
0000
0000
0000
0000
0000
0000
0032
0003
0000
0000
0000
0000
0000
0000
0020
0030
0000
0000
0000
0000
0000
0000
0200
0000
0000
0000
0000
0000
0000
0000
0000
0000
0000
0000
0000
0000
0000
0000
0000
0000
0000
0000
0000
0000
0000
0000
0000
0000
0000
0000
0000
0000
0000
0000
0000
0000
0000
0000
0000
0000
0000
0000
,
1310
0000
0000
1010
0000
0000
1100
0000
,
1010
0000
0000
1010
0000
0000
1100
0000
,
1001
0000
0000
0011
,
0000
0000
1010
0110
,
1001
0000
0000
0011
,
0000
0000
2002
3003
,
2020
3030
0000
0101
,
0000
0000
1100
1001
,
1010
0000
0000
0101
,
0000
0000
2002
3003
,
1010
0100
1000
0000
1010
0100
1000
0000
1010
0100
1000
0000
1010
0100
1000
0000
,
0101
0010
0001
0000
0101
0010
0001
0000
1100
0000
1100
0000
1100
0000
1100
0000
,
1010
0100
1000
0000
1010
0100
1000
0000
1010
0100
1000
0000
1010
0100
1000
0000
,
0101
0010
0001
0000
0101
0010
0001
0000
1100
0000
0000
0000
0000
0000
0000
0000
,
1010
0100
1000
0000
1010
0100
1000
0000
1010
0100
1000
0000
1010
0100
1000
0000
,
0101
0010
0001
0000
0101
0010
0001
0000
1100
0011
1100
0011
1100
0011
1100
0011
,
1010
0100
1000
0000
1010
0100
1000
0000
1010
0100
1000
0000
1010
0100
1000
0000
,
0101
0010
0001
0000
0101
0000
0000
0000
1100
0000
1100
0000
0000
0000
0000
0000
,
2200
0000
0000
0000
0000
0000
3300
0000
2020
0000
0000
0000
0000
0000
0000
3030
,
2002
0000
0000
3003
0220
0000
0000
0330
,
0100
0010
0000
0100
0010
0100
0010
0000
,
0100
0010
0000
0100
0010
0100
0000
0000
,
0001
0010
0001
0010
0001
0010
0001
0100
0001
0100
0001
0100
0001
0100
0010
0100
,
0010
0001
0010
0001
0010
0001
0010
0100
0010
0100
0010
0100
0010
1000
0010
1000
,
0010
0010
0100
0010
0010
0010
0100
0010
0010
0010
0100
0010
0100
0010
1000
1000
,
1000
0000
0000
0100
0000
0000
0002
0000
0000
0000
0000
0000
0000
0000
0003
0000
,
0001
0100
0100
0100
0100
0100
0001
0100
0100
0100
0100
0100
0001
0100
0100
0100
,
0002
0003
0020
0030
0020
0030
0200
0300
2000
0000
0000
0000
0000
0000
0000
0000
,
3100
0001
0100
0001
0000
0100
0001
0000
,
0001
0010
0000
0100
0000
2000
0000
3000
,
1000
0100
0010
0001
0010
0001
1000
0100
1000
0001
0010
0100
0010
0001
1000
0100
,
0010
0001
0010
0001
0010
0001
1000
0100
1000
0001
0010
0100
1000
0001
0010
0001
,
1000
0100
0010
0001
0010
0001
0010
0100
0010
0001
1000
0100
0010
0100
0010
0001
,
0010
0100
1000
0010
0000
0001
0100
0000
,
0010
0010
0000
0100
0000
0001
0010
0100
,
1000
0100
0010
0001
0010
0100
0010
0001
1000
0100
1000
0100
0010
0001
0010
0100
,
0010
0000
0000
0010
0000
0000
1000
0000
0000
1000
0000
0000
0001
0000
0000
0001
0000
0000
1000
0000
0000
1000
0000
0000
0001
0000
0010
0000
0100
0000
1000
0000
0100
0000
0010
0000
0001
0000
0010
0000
0100
0000
1000
0000
0100
0000
0010
0000
,
0001
0010
0001
0010
0001
0010
0001
0010
0001
0010
0001
0010
0100
1000
0100
1000
0100
1000
0100
1000
0100
1000
0100
1000
,
0010
0100
1000
0100
0010
0100
0001
0001
0010
0100
1000
0100
0010
0100
0001
0001
,
0010
0100
1000
0010
0000
0100
1000
0010
,
0100
1000
0100
0000
0100
1000
0010
0000
0100
1000
0100
0000
0001
0000
0000
0000
0100
0000
1000
0000
0100
0000
0010
0000
0100
0000
1000
0000
0010
0000
0001
0000
,
0100
0000
1000
0000
0100
0000
0010
0000
0001
0000
0010
0000
0100
0000
1000
0000
0100
0000
0010
0000
0001
0000
0010
0000
0100
0000
0000
1000
0000
0000
0010
0000
0000
0100
0000
0000
0001
0000
0010
0000
1000
0000
0100
0000
0010
0000
0001
0000
,
0100
0000
0020
0000
0030
0100
0000
0020
0000
0030
0000
0000
0000
0010
0000
0200
0000
0000
0000
0000
0000
0000
0000
0000
,
0000
0000
0000
2300
0000
0000
0000
0000
0000
0000
0000
0000
3001
0000
0000
0000
,
0002
0023
0230
2300
3002
0023
0230
2300
,
3100
1000
0100
1000
0010
0100
0010
0100
0001
0010
0001
0010
0001
0010
0100
0010
,
1000
0100
0010
0100
0010
0001
0100
0010
,
0100
1000
0100
0010
0100
0010
0001
0100
,
1000
0100
0010
0001
1000
0100
0010
0001
1000
0100
0010
0001
0001
0010
0100
1000
,
0001
0010
0100
1000
0001
0010
0100
1000
0001
0010
0100
1000
0001
0010
0100
1000
,
0100
1000
0100
0010
0100
1000
0100
0100
,
0010
0100
0010
0001
1000
0100
0010
0001
,
0001
0010
0001
0010
0001
0010
0001
0100
0001
0100
0001
0100
0010
0100
0010
0100
0010
0100
0001
0100
0001
0100
0001
0100
,
1000
0100
0010
0001
1000
0100
0010
0001
1000
0100
0010
0001
1000
0100
0010
0001
,
1100
0011
1100
0011
1100
0000
0000
0000
0000
0000
0000
0000
0000
0000
0000
0000
,
0110
1001
0110
1001
0110
0000
0000
0000
0000
0000
0000
0000
0000
0000
0000
0000
,
1010
0101
1010
0101
1010
0000
0000
0000
0000
0000
0000
0000
0000
0000
0000
0000
,
2200
3300
2200
3300
2200
3300
2200
3300
2200
0000
3300
0000
0000
0000
0000
0000
0220
0330
0220
0330
0220
0330
0220
0330
0220
0000
0330
0000
0000
0000
0000
0000
,
0011
1100
0011
1100
0011
0000
0000
0000
0000
0000
0000
0000
0000
0000
0000
0000
,
1010
0101
1010
0101
1010
0000
0000
0000
0000
0000
0000
0000
0000
0000
0000
0000
,
1001
0110
1001
0110
1001
0000
0000
0000
0000
0000
0000
0000
0000
0000
0000
0000
,
2200
3300
2200
3300
2200
3300
2200
3300
2200
0000
3300
0000
0000
0000
0000
0000
0220
0330
0220
0330
0220
0330
0220
0330
0220
0000
0330
0000
0000
0000
0000
0000
,
1100
0011
1100
0011
1100
0000
0000
0000
0110
1001
0110
1001
0110
1001
0110
1001
,
0110
1001
0110
1001
0110
0000
0000
0000
0011
1100
0011
1100
0011
1100
0011
1100
,
0011
1100
0011
1100
0011
0000
0000
0000
1010
0101
1010
0101
1010
0101
1010
0101
,
1100
0011
1100
0011
1100
0000
0000
0000
1100
0011
1100
0011
1100
0000
0000
0000
,
1010
0101
1010
0101
1010
0000
0000
0000
0110
1001
0110
1001
0110
1001
0110
1001
,
0110
1001
0110
1001
0110
0000
0000
0000
0011
1100
0011
1100
0011
1100
0011
1100
,
0011
1100
0011
1100
0011
0000
0000
0000
1010
0101
1010
0101
1010
0101
1010
0101
,
1100
0011
1100
0011
1100
0000
0000
0000
1100
0011
1100
0011
1100
0000
0000
0000
,
1001
0110
1001
0110
1001
0000
0000
0000
0011
1100
0011
1100
0011
1100
0011
1100
,
0011
1100
0011
1100
0011
0000
0000
0000
1001
0110
1001
0110
1001
0110
1001
0110
,
1001
0110
1001
0110
1001
0000
0000
0000
0101
1010
0101
1010
0101
1010
0101
1010
,
1001
0110
1001
0110
1001
0000
0000
0000
1010
0101
1010
0101
1010
0000
0000
0000
,
1001
0110
1001
0110
1001
0000
0000
0000
0101
1010
0101
1010
0101
1010
0101
1010
,
0101
1010
0101
1010
0101
0000
0000
0000
1001
0110
1001
0110
1001
0110
1001
0110
,
1001
0110
1001
0110
1001
0000
0000
0000
0011
1100
0011
1100
0011
1100
0011
1100
,
1001
0110
1001
0110
1001
0000
0000
0000
0101
0000
0000
0000
1010
0000
0000
0000
,
1100
0002
0000
0023
,
0230
0000
0000
2300
0000
3000
2000
0000
,
3020
0000
0030
0020
0000
0000
0230
0000
,
2300
3100
0000
0002
0000
0000
0000
0000
,
1003
0100
0010
0001
0001
0001
0010
0100
,
1000
0100
1000
0100
1000
0000
0100
0000
0001
0000
0010
0000
0100
0000
1000
0000
,
1000
0100
0010
0001
0010
0001
0010
0100
,
1000
0000
0000
0100
0000
0000
0010
0000
0002
0000
0000
0000
0000
0000
0003
0000
,
0001
0010
0100
0010
0100
1000
0100
0010
0001
0010
0100
0010
0001
1000
0100
0010
,
0100
1000
0001
0010
0100
1000
0100
1000
0100
0010
0100
0010
0200
0300
0000
0000
,
0001
0010
0100
1000
0000
0100
0000
0010
,
0001
0000
0000
0010
0000
0000
0100
0000
0000
0002
0000
0000
0000
0000
0000
0003
0000
0000
0100
0100
0100
0100
0100
0100
,
0100
0010
0001
0010
0001
1000
0100
0010
0001
0010
0100
0010
0001
0010
0001
1000
,
0100
0000
0000
0010
0000
0000
0100
0000
0000
1000
0000
0000
0100
0000
0000
1000
0000
0000
0001
0000
0000
0010
0000
0000
0001
0000
0001
0000
0000
0000
0010
0000
0010
0000
0000
0000
0001
0000
0010
0000
0100
0000
1000
0000
0100
0000
0010
0000
,
0001
0001
0010
0010
0010
0100
0001
0020
,
0030
0010
0100
1000
0001
0001
0010
0010
,
0100
0100
1000
0000
1000
0100
0000
0100
,
0000
0010
0000
0001
0002
0003
0010
0000
,
0010
0100
0010
0100
0010
0000
0001
0000
0010
0000
0100
0000
1000
0000
0100
0000
,
0010
0000
0000
0010
0000
0000
0001
0000
0001
0000
0000
0000
0010
0000
0100
0000
,
0010
0000
0000
0000
,
0000
0000
0000
0000
,
0000
0000
0000
0000
,
0000
0000
0100
0010
,
0210
0000
0000
0010
0011
0000
0001
0001
,
2300
0001
0001
0000
0110
0000
0000
0001
,
3021
0000
0000
0100
1100
0000
0000
0000
,
0032
0000
0000
0000
0000
0000
0100
0010
0100
0010
0100
0000
0100
1000
0100
1000
,
0213
0000
0000
0000
1001
0000
0000
0010
,
0000
0010
0010
0000
0011
0000
0000
0001
,
0321
0000
0000
0100
1100
0000
0000
0000
,
2130
0001
0100
0001
0100
0001
0100
0001
0100
0001
0100
0001
0100
0001
0100
0001
,
3200
0000
1300
0001
0100
0001
1000
0010
1000
0100
0010
0001
0100
0001
1000
0010
,
0200
0000
1300
0001
0100
0001
1000
0100
0010
0001
1000
0010
1000
0001
0100
0010
,
0200
0000
1300
0001
1000
0010
1000
0001
0100
0001
0010
0100
1000
0010
1000
0001
,
0100
0000
0100
0000
0010
0100
0010
0100
0010
0100
0010
0000
0100
1000
0100
1000
,
0011
0000
0011
0011
0000
0011
0000
0011
,
0000
0011
0000
0011
0011
0000
0011
0000
,
1100
0000
1100
1100
0000
1100
0000
1100
,
0000
1100
0000
1100
1100
0000
1100
1100
,
1100
0000
0000
0000
,
0000
0000
0000
0000
,
0000
0000
0000
0000
,
0000
0000
0000
0000
,
0110
0000
0000
0000
,
0000
0000
0000
0000
,
0100
0010
0100
0010
0100
0010
0100
0010
,
0100
0010
0100
0010
0100
0010
0100
0010
,
0100
0010
0100
0010
0100
0010
0100
0010
,
0001
0010
0001
0010
0001
0010
0001
0010
0100
1000
0100
1000
0100
1000
0100
1000
,
0011
0000
1001
0000
,
0101
0000
1001
0000
,
0110
0000
1010
0000
,
2200
0000
0000
0000
,
0000
0000
0000
0000
,
0000
0000
0000
0000
,
0000
0000
0000
0000
,
0000
0000
0000
0000
,
3311
0011
0022
0000
0000
0000
0000
0000
,
0033
0000
0000
0000
;
